sdy体育平台

微信

Hao4K影音

[美剧] 幽灵写手 第(di)二季4k

3 天前 7709 0 |只看大图 回帖奖励 |倒序浏览 |阅读模式

青衫烟雨 楼主

3 天前

电视剧频道
电视剧封面:
电视剧名: 幽灵写手 第二季4k
年  代: 2020  
国  家: 美国
类  别: 喜剧 家庭 
语  言: 英语
字  幕: 英文原版
上映日期: 2020-10-09
文件格式: mkv    
视频效果: 4K(3840x2160)    
资源大小: 55.28 GB
片  长: 0 分钟
导  演: Mars Horodyski / Melanie Orr / 卢克·梅瑟尼
剧情简介: 本剧为90年代同名儿童剧的重启作,讲述一个在小型书店的鬼魂把书中的虚构人物释放到现实世界时,四个孩子因此组合起来为鬼魂解决各种未了之事。
代笔小队 / 小鬼与文字幽灵(台)/幽灵写手 第二季4k  Ghostwriter.2019.S02.COMPLETE.2160p.ATVP.WEB-DL.x265.10bit.HDR.DD5.1美剧信息
  1. Video
  2. ID : 1
  3. Format : HEVC
  4. Format/Info : High Efficiency Video Coding
  5. Format profile : Main 10@L5@High
  6. HDR format : SMPTE ST 2086, HDR10 compatible
  7. Codec ID : V_MPEGH/ISO/HEVC
  8. Duration : 29 min 18 s
  9. Bit rate : 23.8 Mb/s
  10. Width : 3 840 pixels
  11. Height : 1 920 pixels
  12. Display aspect ratio : 2.000
  13. Frame rate mode : Constant
  14. Frame rate : 23.976 (24000/1001) FPS
  15. Color space : YUV
  16. Chroma subsampling : 4:2:0 (Type 2)
  17. Bit depth : 10 bits
  18. Bits/(Pixel*Frame) : 0.135
  19. Stream size : 4.88 GiB (98%)
  20. Language : English
  21. Default : Yes
  22. Forced : No
  23. Color range : Limited
  24. Color primaries : BT.2020
  25. Transfer characteristics : PQ
  26. Matrix coefficients : BT.2020 non-constant
  27. Mastering display color primaries : Display P3
  28. Mastering display luminance : min: 0.0050 cd/m2, max: 1000 cd/m2
  29. Maximum Content Light Level : 2386 cd/m2
  30. Maximum Frame-Average Light Level : 282 cd/m2

  31. Audio
  32. ID : 2
  33. Format : AC-3
  34. Format/Info : Audio Coding 3
  35. Commercial name : Dolby Digital
  36. Codec ID : A_AC3
  37. Duration : 29 min 18 s
  38. Bit rate mode : Constant
  39. Bit rate : 384 kb/s
  40. Channel(s) : 6 channels
  41. Channel layout : L R C LFE Ls Rs
  42. Sampling rate : 48.0 kHz
  43. Frame rate : 31.250 FPS (1536 SPF)
  44. Compression mode : Lossy
  45. Stream size : 80.5 MiB (2%)
  46. Title : English
  47. Language : English
  48. Service kind : Complete Main
  49. Default : Yes
  50. Forced : No

  51. Text #1
  52. ID : 3
  53. Format : UTF-8
  54. Codec ID : S_TEXT/UTF8
  55. Codec ID/Info : UTF-8 Plain Text
  56. Duration : 29 min 2 s
  57. Bit rate : 187 b/s
  58. Count of elements : 449
  59. Stream size : 39.9 KiB (0%)
  60. Title : Hindi
  61. Language : Hindi
  62. Default : No
  63. Forced : No

  64. Text #2
  65. ID : 4
  66. Format : UTF-8
  67. Codec ID : S_TEXT/UTF8
  68. Codec ID/Info : UTF-8 Plain Text
  69. Duration : 29 min 2 s
  70. Bit rate : 249 b/s
  71. Count of elements : 449
  72. Stream size : 53.1 KiB (0%)
  73. Title : Tamil
  74. Language : Tamil
  75. Default : No
  76. Forced : No

  77. Text #3
  78. ID : 5
  79. Format : UTF-8
  80. Codec ID : S_TEXT/UTF8
  81. Codec ID/Info : UTF-8 Plain Text
  82. Duration : 29 min 2 s
  83. Bit rate : 231 b/s
  84. Count of elements : 449
  85. Stream size : 49.3 KiB (0%)
  86. Title : Telugu
  87. Language : Telugu
  88. Default : No
  89. Forced : No

  90. Text #4
  91. ID : 6
  92. Format : UTF-8
  93. Codec ID : S_TEXT/UTF8
  94. Codec ID/Info : UTF-8 Plain Text
  95. Duration : 27 min 1 s
  96. Bit rate : 85 b/s
  97. Count of elements : 442
  98. Stream size : 17.0 KiB (0%)
  99. Title : English
  100. Language : English
  101. Default : No
  102. Forced : No

  103. Text #5
  104. ID : 7
  105. Format : UTF-8
  106. Codec ID : S_TEXT/UTF8
  107. Codec ID/Info : UTF-8 Plain Text
  108. Duration : 28 min 1 s
  109. Bit rate : 87 b/s
  110. Count of elements : 470
  111. Stream size : 18.0 KiB (0%)
  112. Title : SDH
  113. Language : English
  114. Default : No
  115. Forced : No

  116. Text #6
  117. ID : 8
  118. Format : UTF-8
  119. Codec ID : S_TEXT/UTF8
  120. Codec ID/Info : UTF-8 Plain Text
  121. Duration : 29 min 2 s
  122. Bit rate : 118 b/s
  123. Count of elements : 448
  124. Stream size : 25.2 KiB (0%)
  125. Title : Arabic
  126. Language : Arabic
  127. Default : No
  128. Forced : No

  129. Text #7
  130. ID : 9
  131. Format : UTF-8
  132. Codec ID : S_TEXT/UTF8
  133. Codec ID/Info : UTF-8 Plain Text
  134. Duration : 29 min 2 s
  135. Bit rate : 101 b/s
  136. Count of elements : 420
  137. Stream size : 21.5 KiB (0%)
  138. Title : Bulgarian
  139. Language : Bulgarian
  140. Default : No
  141. Forced : No

  142. Text #8
  143. ID : 10
  144. Format : UTF-8
  145. Codec ID : S_TEXT/UTF8
  146. Codec ID/Info : UTF-8 Plain Text
  147. Duration : 29 min 2 s
  148. Bit rate : 66 b/s
  149. Count of elements : 447
  150. Stream size : 14.1 KiB (0%)
  151. Title : Czech
  152. Language : Czech
  153. Default : No
  154. Forced : No

  155. Text #9
  156. ID : 11
  157. Format : UTF-8
  158. Codec ID : S_TEXT/UTF8
  159. Codec ID/Info : UTF-8 Plain Text
  160. Duration : 29 min 2 s
  161. Bit rate : 72 b/s
  162. Count of elements : 401
  163. Stream size : 15.4 KiB (0%)
  164. Title : Danish
  165. Language : Danish
  166. Default : No
  167. Forced : No
复制代码


代笔小队 / 小鬼与文字幽灵(台)/幽灵写手 第二季4k  Ghostwriter.2019.S02.COMPLETE.2160p.ATVP.WEB-DL.x265.10bit.HDR.DD5.1美剧下载

幽灵写手 第二季4k  Ghostwriter.2019.S02.COMPLETE.2160p.ATVP.WEB-DL.x265.10bit.HDR.DD5.1【55.28 GB】
[Hao4k]幽灵写手 第二季4k Ghostwriter.2019.S02.COMPLETE.2160p.ATVP.WEB-DL.x265.10.torrent (140 KB)

幽灵写手 第二季4k  Ghostwriter.2019.S02.COMPLETE.2160p.ATVP.WEB-DL.DD5.1.x265【47.92 GB】
[Hao4k]幽灵写手 第二季4k Ghostwriter.2019.S02.COMPLETE.2160p.ATVP.WEB-DL.DD5.1.x.torrent (121.37 KB)
分享到:  QQ好友和群QQ好友和群

   发表回复

您需要登录后才可以回帖 登录 | 立即注册

返回列表 本版积分规则

:
白银玩家
:
未填写

主题(ti)

帖子

积(ji)分1451

图文推荐

  • 我本人觉得这种硬盘座+播放机是折中党最好

    NAS太贵了,4盒以上的硬(ying)盘柜也不(bu)便宜,随着资源(yuan)越

  • 不用madVR也能正确显示HDR——新版PotPlaye

    用PC看视频的朋友多(duo)多(duo)少少都用过(guo)PotPlayer这个(ge)神

  • 教你如何制做自已喜欢的字幕 (上)

    一部好片源自然需(xu)要自已喜欢(huan)的字(zi)幕,正如才子与佳(jia)

  • 隐藏式音箱5.1家庭影院案例

    为什么论坛没有人像我一样做这种(zhong)隐形音箱(xiang)方案(an)呢?

  • 昨天晚上五四青年节特别节目,效果相当不错

    噢。昨(zuo)天(tian)晚上五(wu)四青年节(jie)特别节(jie)目,效果相当不错(cuo)。

  • 昨晚重温了《生死时速》4K版,这部经典大片

    昨晚重温(wen)了(le)《生死时(shi)速》4K版,这部经(jing)典大(da)片。记得

  • 返(fan)回顶部

  • x
    温馨提示

    投影新手学院正(zheng)式上线(xian)!

    为(wei)投影(ying)玩家(jia)而生的投影(ying)学院(yuan),为(wei)您提供认识投影(ying)、购买(mai)投影(ying)、及使用投影(ying)的专业(ye)知识。

    立刻查看