sdy体育平台

微信

Hao4K影音

[美剧] 大人物4k Big.Shot.S01E01.2160p.美剧下(xia)载

3 天(tian)前 9755 0 |只看大图 回帖奖励 |倒序浏览 |阅读模式

大红色 楼主

3 天前

电视剧频道
电视剧封面:
电视剧名: 大人物4k
年  代: 2021  
国  家: 美国
类  别: 剧情 喜剧 
语  言: 英语
字  幕: 英文原版
上映日期: 2021-04-16
文件格式: mkv    
视频效果: 4K(3840x2160)    
资源大小: 5.07 GB
片  长: -
导  演: 大卫·E·凯利 / Grace Cary Bickley / Kate Heckman
剧情简介: John Stamos将主演David E. Kelley及Dean Lorey所执笔的Disney+剧《大人物 Big Shot》,这部剧灵感来自《单亲家长 Single Parents》主演Brad Garrett﹑Bill D’Elia负责执导头两集。
  这部10集剧讲述个性倔强的大学篮球队教练(John Stamos饰)被炒后,他的新工作是在一间女子精英私立高校当教师及教练。
头牌/大人物4kBig.Shot.S01E01.2160p.DSNP.WEBRip.x265.10bit.HDR.DDP5.1.Atmos美剧信息
  1. Video
  2. ID : 1
  3. Format : HEVC
  4. Format/Info : High Efficiency Video Coding
  5. Format profile : Main 10@L5@High
  6. Codec ID : V_MPEGH/ISO/HEVC
  7. Duration : 43 min 10 s
  8. Bit rate : 16.1 Mb/s
  9. Width : 3 840 pixels
  10. Height : 2 160 pixels
  11. Display aspect ratio : 16:9
  12. Frame rate mode : Constant
  13. Frame rate : 23.976 (24000/1001) FPS
  14. Color space : YUV
  15. Chroma subsampling : 4:2:0
  16. Bit depth : 10 bits
  17. Bits/(Pixel*Frame) : 0.081
  18. Stream size : 4.84 GiB (95%)
  19. Default : Yes
  20. Forced : No
  21. Color range : Limited
  22. Color primaries : BT.2020
  23. Transfer characteristics : PQ
  24. Matrix coefficients : BT.2020 non-constant

  25. Audio
  26. ID : 2
  27. Format : E-AC-3 JOC
  28. Format/Info : Enhanced AC-3 with Joint Object Coding
  29. Commercial name : Dolby Digital Plus with Dolby Atmos
  30. Codec ID : A_EAC3
  31. Duration : 43 min 10 s
  32. Bit rate mode : Constant
  33. Bit rate : 768 kb/s
  34. Channel(s) : 6 channels
  35. Channel layout : L R C LFE Ls Rs
  36. Sampling rate : 48.0 kHz
  37. Frame rate : 31.250 FPS (1536 SPF)
  38. Compression mode : Lossy
  39. Stream size : 237 MiB (5%)
  40. Title : English
  41. Language : English
  42. Service kind : Complete Main
  43. Default : No
  44. Forced : No
  45. Complexity index : 16
  46. Number of dynamic objects : 15
  47. Bed channel count : 1 channel
  48. Bed channel configuration : LFE

  49. Text #1
  50. ID : 3
  51. Format : UTF-8
  52. Codec ID : S_TEXT/UTF8
  53. Codec ID/Info : UTF-8 Plain Text
  54. Duration : 42 min 51 s
  55. Bit rate : 69 b/s
  56. Count of elements : 642
  57. Stream size : 21.8 KiB (0%)
  58. Title : Brazilian Portuguese
  59. Language : Portuguese
  60. Default : No
  61. Forced : No

  62. Text #2
  63. ID : 4
  64. Format : UTF-8
  65. Codec ID : S_TEXT/UTF8
  66. Codec ID/Info : UTF-8 Plain Text
  67. Duration : 42 min 51 s
  68. Bit rate : 71 b/s
  69. Count of elements : 645
  70. Stream size : 22.5 KiB (0%)
  71. Title : Danish
  72. Language : Danish
  73. Default : No
  74. Forced : No

  75. Text #3
  76. ID : 5
  77. Format : UTF-8
  78. Codec ID : S_TEXT/UTF8
  79. Codec ID/Info : UTF-8 Plain Text
  80. Duration : 41 min 25 s
  81. Bit rate : 70 b/s
  82. Count of elements : 654
  83. Stream size : 21.3 KiB (0%)
  84. Title : German
  85. Language : German
  86. Default : No
  87. Forced : No

  88. Text #4
  89. ID : 6
  90. Format : UTF-8
  91. Codec ID : S_TEXT/UTF8
  92. Codec ID/Info : UTF-8 Plain Text
  93. Duration : 41 min 18 s
  94. Bit rate : 83 b/s
  95. Count of elements : 727
  96. Stream size : 25.3 KiB (0%)
  97. Title : English [SDH]
  98. Language : English
  99. Default : No
  100. Forced : No

  101. Text #5
  102. ID : 7
  103. Format : UTF-8
  104. Codec ID : S_TEXT/UTF8
  105. Codec ID/Info : UTF-8 Plain Text
  106. Duration : 41 min 18 s
  107. Bit rate : 76 b/s
  108. Count of elements : 654
  109. Stream size : 23.1 KiB (0%)
  110. Title : English
  111. Language : English
  112. Default : No
  113. Forced : No

  114. Text #6
  115. ID : 8
  116. Format : UTF-8
  117. Codec ID : S_TEXT/UTF8
  118. Codec ID/Info : UTF-8 Plain Text
  119. Duration : 42 min 51 s
  120. Bit rate : 71 b/s
  121. Count of elements : 648
  122. Stream size : 22.3 KiB (0%)
  123. Title : European Spanish
  124. Language : Spanish
  125. Default : No
  126. Forced : No

  127. Text #7
  128. ID : 9
  129. Format : UTF-8
  130. Codec ID : S_TEXT/UTF8
  131. Codec ID/Info : UTF-8 Plain Text
  132. Duration : 42 min 51 s
  133. Bit rate : 68 b/s
  134. Count of elements : 656
  135. Stream size : 21.6 KiB (0%)
  136. Title : Finnish
  137. Language : Finnish
  138. Default : No
  139. Forced : No
复制代码


头牌/大人物4kBig.Shot.S01E01.2160p.DSNP.WEBRip.x265.10bit.HDR.DDP5.1.Atmos美剧下载

大人物4k Big.Shot.S01E01.2160p.DSNP.WEBRip.x265.10bit.HDR.DDP5.1.Atmos【5.07 GB】
[Hao4k]大人物4k Big.Shot.S01E01.2160p.DSNP.WEBRip.x265.10bit.HDR.DDP5.1.Atmos-MZ.torrent (26.02 KB)

大人物4k Big.Shot.S01E02.2160p.DSNP.WEBRip.x265.10bit.HDR.DDP5.1.Atmos【4.73GB】
[Hao4k]大人物4k Big.Shot.S01E02.2160p.DSNP.WEBRip.x265.10bit.HDR.DDP5.1.Atmos-MZ.torrent (47.94 KB)

大人物4k Big.Shot.S01E03.2160p.DSNP.WEBRip.x265.10bit.HDR.DDP5.1.Atmos【5.28GB】
[Hao4k]大人物4k Big.Shot.S01E03.2160p.DSNP.WEBRip.x265.10bit.HDR.DDP5.1.Atmos-MZ.torrent (27.08 KB)

大人物4k Big.Shot.S01E04.2160p.DSNP.WEBRip.x265.10bit.HDR.DDP5.1.Atmos【4.96GB】
[Hao4k]大人物4k Big.Shot.S01E04.2160p.DSNP.WEBRip.x265.10bit.HDR.DDP5.1.Atmos-MZ.torrent (50.3 KB)
分享到:  QQ好友和群QQ好友和群

   发表回复

您需要登录后才可以回帖 登录 | 立即注册

返回列表 本版积分规则

:
白银玩家
:
未填写

主题(ti)

帖子

积分1056

图文推荐

  • 我本人觉得这种硬盘座+播放机是折中党最好

    NAS太贵了,4盒(he)以上(shang)的硬盘柜也不便(bian)宜,随着(zhe)资源越

  • 不用madVR也能正确显示HDR——新版PotPlaye

    用(yong)PC看视频的朋友多多少(shao)少(shao)都用(yong)过(guo)PotPlayer这个(ge)神

  • 教你如何制做自已喜欢的字幕 (上)

    一部好片(pian)源自然需要自已喜欢的(de)字幕,正(zheng)如才子与佳

  • 隐藏式音箱5.1家庭影院案例

    为什(shen)么论(lun)坛没有人(ren)像(xiang)我一样(yang)做这种隐形音箱方案呢?

  • 昨天晚上五四青年节特别节目,效果相当不错

    噢(o)。昨天(tian)晚上五(wu)四青年节特别节目(mu),效果相当(dang)不错。

  • 昨晚重温了《生死时速》4K版,这部经典大片

    昨晚(wan)重温了《生死时速》4K版,这部经典大(da)片(pian)。记得(de)

  • 返回顶(ding)部

  • x
    温馨提示

    投影新手学院正(zheng)式上线!

    为(wei)投影(ying)(ying)玩家而生(sheng)的(de)(de)投影(ying)(ying)学院,为(wei)您提供认识投影(ying)(ying)、购(gou)买(mai)投影(ying)(ying)、及使用投影(ying)(ying)的(de)(de)专业知识。

    立刻查看