sdy体育平台

微信

Hao4K影音

[美剧] 神话任务(wu) 第二季4k Mythic.Quest.Ravens.Banquet.S02E01.HDR.2160p.美剧下载

3 天前 13052 1 |只看大图 回帖奖励 |倒序浏览 |阅读模式

大红色 楼主

3 天前

电视剧频道
电视剧封面:
电视剧名: 神话任务 第二季4k
年  代: 2021  
国  家: 美国
类  别: 喜剧 
语  言: 英语
字  幕: -
上映日期: 2021-05-07
文件格式: mkv    
视频效果: 4K(3840x2160)    
资源大小: 4.42 GB
片  长: 25 分钟
导  演: 罗布·麦克尔亨尼
剧情简介: With the quarantine finally over, the new season of "Mythic Quest” finds everyone back in the office (well, almost everyone), attempting to build upon the success of Raven\'s Banquet by launching an epic new expansion, but Ian (Rob McElhenney) and the newly promoted co-creative director, Poppy (Charlotte Nicdao), struggle with the game’s direction. Meanwhile, C.W. (F. Murray Abraham) reconciles some unresolved issues from his past, the testers (Ashly Burch and Imani Hakim) test the bounds of an office romance, and David (David Hornsby) loses yet another woman in his life as Jo (Jessie Ennis) leaves him to assist Brad (Danny Pudi).
神话任务:群鸦盛宴/神话任务 第二季4k Mythic.Quest.Ravens.Banquet.S02E01.HDR.2160p.WEB.H265美剧信息
  1. Video
  2. ID : 1
  3. Format : HEVC
  4. Format/Info : High Efficiency Video Coding
  5. Format profile : Main 10@L5@High
  6. HDR format : SMPTE ST 2086, HDR10 compatible
  7. Codec ID : V_MPEGH/ISO/HEVC
  8. Duration : 25 min 0 s
  9. Bit rate : 24.0 Mb/s
  10. Width : 3 840 pixels
  11. Height : 1 920 pixels
  12. Display aspect ratio : 2.000
  13. Frame rate mode : Constant
  14. Frame rate : 23.976 (24000/1001) FPS
  15. Color space : YUV
  16. Chroma subsampling : 4:2:0 (Type 2)
  17. Bit depth : 10 bits
  18. Bits/(Pixel*Frame) : 0.136
  19. Stream size : 4.19 GiB (95%)
  20. Language : English
  21. Default : Yes
  22. Forced : No
  23. Color range : Limited
  24. Color primaries : BT.2020
  25. Transfer characteristics : PQ
  26. Matrix coefficients : BT.2020 non-constant
  27. Mastering display color primaries : Display P3
  28. Mastering display luminance : min: 0.0050 cd/m2, max: 1000 cd/m2
  29. Maximum Content Light Level : 690 cd/m2
  30. Maximum Frame-Average Light Level : 164 cd/m2

  31. Audio
  32. ID : 2
  33. Format : E-AC-3 JOC
  34. Format/Info : Enhanced AC-3 with Joint Object Coding
  35. Commercial name : Dolby Digital Plus with Dolby Atmos
  36. Codec ID : A_EAC3
  37. Duration : 25 min 0 s
  38. Bit rate mode : Constant
  39. Bit rate : 768 kb/s
  40. Channel(s) : 6 channels
  41. Channel layout : L R C LFE Ls Rs
  42. Sampling rate : 48.0 kHz
  43. Frame rate : 31.250 FPS (1536 SPF)
  44. Compression mode : Lossy
  45. Stream size : 137 MiB (3%)
  46. Language : English
  47. Service kind : Complete Main
  48. Default : Yes
  49. Forced : No
  50. Complexity index : 16
  51. Number of dynamic objects : 15
  52. Bed channel count : 1 channel
  53. Bed channel configuration : LFE

  54. Text #1
  55. ID : 3
  56. Format : UTF-8
  57. Codec ID : S_TEXT/UTF8
  58. Codec ID/Info : UTF-8 Plain Text
  59. Title : English
  60. Language : English
  61. Default : No
  62. Forced : No

  63. Text #2
  64. ID : 4
  65. Format : UTF-8
  66. Codec ID : S_TEXT/UTF8
  67. Codec ID/Info : UTF-8 Plain Text
  68. Title : Arabic
  69. Language : Arabic
  70. Default : No
  71. Forced : No

  72. Text #3
  73. ID : 5
  74. Format : UTF-8
  75. Codec ID : S_TEXT/UTF8
  76. Codec ID/Info : UTF-8 Plain Text
  77. Title : Bulgarian
  78. Language : Bulgarian
  79. Default : No
  80. Forced : No

  81. Text #4
  82. ID : 6
  83. Format : UTF-8
  84. Codec ID : S_TEXT/UTF8
  85. Codec ID/Info : UTF-8 Plain Text
  86. Title : Chinese Simplified
  87. Language : Chinese
  88. Default : No
  89. Forced : No

  90. Text #5
  91. ID : 7
  92. Format : UTF-8
  93. Codec ID : S_TEXT/UTF8
  94. Codec ID/Info : UTF-8 Plain Text
  95. Title : Chinese Traditional
  96. Language : Chinese
  97. Default : No
  98. Forced : No

  99. Text #6
  100. ID : 8
  101. Format : UTF-8
  102. Codec ID : S_TEXT/UTF8
  103. Codec ID/Info : UTF-8 Plain Text
  104. Title : Czech
  105. Language : Czech
  106. Default : No
  107. Forced : No

  108. Text #7
  109. ID : 9
  110. Format : UTF-8
  111. Codec ID : S_TEXT/UTF8
  112. Codec ID/Info : UTF-8 Plain Text
  113. Title : Danish
  114. Language : Danish
  115. Default : No
  116. Forced : No

  117. Text #8
  118. ID : 10
  119. Format : UTF-8
  120. Codec ID : S_TEXT/UTF8
  121. Codec ID/Info : UTF-8 Plain Text
  122. Title : German
  123. Language : German
  124. Default : No
  125. Forced : No
复制代码

神话任务:群鸦盛宴/神话任务 第二季4k Mythic.Quest.Ravens.Banquet.S02E01.HDR.2160p.WEB.H265美剧下载

神话任务 第二季4k Mythic.Quest.Ravens.Banquet.S02E01.HDR.2160p.WEB.H265【4.42GB】
[Hao4k]神话任务 第二季4k Mythic.Quest.Ravens.Banquet.S02E01.HDR.2160p.WEB.H265-G.torrent (44.82 KB)

神话任务 第二季4k Mythic.Quest.Ravens.Banquet.S02E02.HDR.2160p.WEB.H265【4.77GB】
[Hao4k]神话任务 第二季4k Mythic.Quest.Ravens.Banquet.S02E02.HDR.2160p.WEB.H265-G.torrent (48.32 KB)
分享到:  QQ好友和群QQ好友和群

全部回复1

沙发
一支老黄花 发表于 3 天前

一支老黄花 沙发

3 天(tian)前

感谢分享

   发表回复

您需要登录后才可以回帖 登录 | 立即注册

返回列表 本版积分规则

:
白银玩家
:
未填写

主(zhu)题

帖子

积分1056

图文推荐

  • 我本人觉得这种硬盘座+播放机是折中党最好

    NAS太贵了,4盒(he)以(yi)上的硬盘柜也不便宜,随着资(zi)源(yuan)越

  • 不用madVR也能正确显示HDR——新版PotPlaye

    用PC看(kan)视频的朋友多多少少都用过PotPlayer这(zhei)个神

  • 教你如何制做自已喜欢的字幕 (上)

    一部好(hao)片源自然(ran)需要自已喜欢的字幕,正如(ru)才(cai)子(zi)与佳

  • 隐藏式音箱5.1家庭影院案例

    为什么论坛没有(you)人(ren)像我一(yi)样(yang)做(zuo)这(zhei)种(zhong)隐形音箱方案呢?

  • 昨天晚上五四青年节特别节目,效果相当不错

    噢。昨天(tian)晚上五四青年节特别节目(mu),效果相当不错。

  • 昨晚重温了《生死时速》4K版,这部经典大片

    昨晚重温(wen)了《生死时速》4K版,这部经典(dian)大片。记得

  • 返(fan)回顶(ding)部

  • x
    温馨提示

    投影新手学院正式上线(xian)!

    为投(tou)影(ying)(ying)玩家而生的投(tou)影(ying)(ying)学院(yuan),为您提(ti)供认识投(tou)影(ying)(ying)、购(gou)买投(tou)影(ying)(ying)、及使用投(tou)影(ying)(ying)的专(zhuan)业知识。

    立刻查看