sdy体育平台

微信

Hao4K影音

电影频道
电影封面:
片  名: 爱莉安娜·格兰德:嗨,我爱你4k
电影分类: 纪录片 
国  家: 美国 
年  代: 2020年
分 辨 率: 4K(3840x2160)
电影格式: MKV|REMUX 
画质标准: HDR 
音质编码: Dolby Digital Plus Audio 
电影声道: 其他 
帧数/FPS: 23.976 帧
电影语言: 英文原版 
资源大小: 11.09 GB
导  演: -
豆瓣评分: 8.3 分
中文字幕: -
剧情简介: 爱莉安娜·格兰德登上伦敦的舞台,奉上“甜到翻世界巡回演唱会”,并分享了她在排练和巡演中的幕后生活。
爱莉安娜·格兰德:嗨,我爱你4k Ariana.Grande.Excuse.Me.I.Love.You.2020.2160p.WEBRip.x265电影信息
  1. Video
  2. ID : 1
  3. Format : HEVC
  4. Format/Info : High Efficiency Video Coding
  5. Format profile : Main@L5.1@High
  6. Codec ID : V_MPEGH/ISO/HEVC
  7. Duration : 1 h 37 min
  8. Bit rate : 15.6 Mb/s
  9. Width : 3 840 pixels
  10. Height : 1 600 pixels
  11. Display aspect ratio : 2.40:1
  12. Frame rate mode : Constant
  13. Frame rate : 23.976 (24000/1001) FPS
  14. Color space : YUV
  15. Chroma subsampling : 4:2:0
  16. Bit depth : 8 bits
  17. Bits/(Pixel*Frame) : 0.106
  18. Stream size : 10.7 GiB (96%)
  19. Writing library : x265 3.4+36-5239276dd:[Windows][MSVC 1900][64 bit] 8bit
  20. Encoding settings : cpuid=1111039 / frame-threads=4 / numa-pools=16 / wpp / no-pmode / no-pme / no-psnr / no-ssim / log-level=2 / input-csp=1 / input-res=3840x1600 / interlace=0 / total-frames=175634 / level-idc=51 / high-tier=1 / uhd-bd=0 / ref=4 / no-allow-non-conformance / repeat-headers / annexb / aud / hrd / info / hash=0 / no-temporal-layers / no-open-gop / min-keyint=23 / keyint=250 / gop-lookahead=0 / bframes=4 / b-adapt=2 / b-pyramid / bframe-bias=0 / rc-lookahead=25 / lookahead-slices=4 / scenecut=40 / hist-scenecut=0 / radl=0 / no-splice / no-intra-refresh / ctu=64 / min-cu-size=8 / rect / no-amp / max-tu-size=32 / tu-inter-depth=1 / tu-intra-depth=1 / limit-tu=0 / rdoq-level=2 / dynamic-rd=0.00 / no-ssim-rd / signhide / no-tskip / nr-intra=0 / nr-inter=0 / no-constrained-intra / no-strong-intra-smoothing / max-merge=3 / limit-refs=3 / limit-modes / me=3 / subme=3 / merange=57 / temporal-mvp / no-frame-dup / no-hme / weightp / no-weightb / no-analyze-src-pics / deblock=-3:-3 / no-sao / no-sao-non-deblock / rd=4 / selective-sao=0 / no-early-skip / rskip / no-fast-intra / no-tskip-fast / no-cu-lossless / no-b-intra / no-splitrd-skip / rdpenalty=0 / psy-rd=2.00 / psy-rdoq=1.00 / no-rd-refine / no-lossless / cbqpoffs=0 / crqpoffs=0 / rc=crf / crf=17.0 / qcomp=0.60 / qpstep=4 / stats-write=0 / stats-read=0 / vbv-maxrate=160000 / vbv-bufsize=160000 / vbv-init=0.9 / min-vbv-fullness=50.0 / max-vbv-fullness=80.0 / crf-max=0.0 / crf-min=0.0 / ipratio=1.40 / pbratio=1.30 / aq-mode=2 / aq-strength=1.00 / cutree / zone-count=0 / no-strict-cbr / qg-size=32 / no-rc-grain / qpmax=69 / qpmin=0 / no-const-vbv / sar=1 / overscan=0 / videoformat=5 / range=0 / colorprim=1 / transfer=1 / colormatrix=1 / chromaloc=0 / display-window=0 / cll=0,0 / min-luma=0 / max-luma=255 / log2-max-poc-lsb=8 / vui-timing-info / vui-hrd-info / slices=1 / no-opt-qp-pps / no-opt-ref-list-length-pps / no-multi-pass-opt-rps / scenecut-bias=0.05 / hist-threshold=0.03 / no-opt-cu-delta-qp / no-aq-motion / no-hdr10 / no-hdr10-opt / no-dhdr10-opt / no-idr-recovery-sei / analysis-reuse-level=0 / analysis-save-reuse-level=0 / analysis-load-reuse-level=0 / scale-factor=0 / refine-intra=0 / refine-inter=0 / refine-mv=1 / refine-ctu-distortion=0 / no-limit-sao / ctu-info=0 / no-lowpass-dct / refine-analysis-type=0 / copy-pic=1 / max-ausize-factor=1.0 / no-dynamic-refine / no-single-sei / no-hevc-aq / no-svt / no-field / qp-adaptation-range=1.00 / scenecut-aware-qp=0conformance-window-offsets / right=0 / bottom=0 / decoder-max-rate=0 / no-vbv-live-multi-pass
  21. Default : Yes
  22. Forced : No
  23. Color range : Limited
  24. Color primaries : BT.709
  25. Transfer characteristics : BT.709
  26. Matrix coefficients : BT.709

  27. Audio
  28. ID : 2
  29. Format : E-AC-3
  30. Format/Info : Enhanced AC-3
  31. Commercial name : Dolby Digital Plus
  32. Codec ID : A_EAC3
  33. Duration : 1 h 37 min
  34. Bit rate mode : Constant
  35. Bit rate : 640 kb/s
  36. Channel(s) : 6 channels
  37. Channel layout : L R C LFE Ls Rs
  38. Sampling rate : 48.0 kHz
  39. Frame rate : 31.250 FPS (1536 SPF)
  40. Compression mode : Lossy
  41. Delay relative to video : 7 ms
  42. Stream size : 448 MiB (4%)
  43. Language : English
  44. Service kind : Complete Main
  45. Default : Yes
  46. Forced : No

  47. Text #1
  48. ID : 3
  49. Format : UTF-8
  50. Codec ID : S_TEXT/UTF8
  51. Codec ID/Info : UTF-8 Plain Text
  52. Duration : 1 h 7 min
  53. Bit rate : 0 b/s
  54. Count of elements : 10
  55. Stream size : 328 Bytes (0%)
  56. Language : English
  57. Default : Yes
  58. Forced : Yes

  59. Text #2
  60. ID : 4
  61. Format : UTF-8
  62. Codec ID : S_TEXT/UTF8
  63. Codec ID/Info : UTF-8 Plain Text
  64. Duration : 1 h 37 min
  65. Bit rate : 94 b/s
  66. Count of elements : 1889
  67. Stream size : 67.9 KiB (0%)
  68. Title : cc
  69. Language : English
  70. Default : No
  71. Forced : No

  72. Text #3
  73. ID : 5
  74. Format : UTF-8
  75. Codec ID : S_TEXT/UTF8
  76. Codec ID/Info : UTF-8 Plain Text
  77. Duration : 1 h 37 min
  78. Bit rate : 30 b/s
  79. Count of elements : 480
  80. Stream size : 21.6 KiB (0%)
  81. Language : Greek
  82. Default : No
  83. Forced : No

  84. Text #4
  85. ID : 6
  86. Format : UTF-8
  87. Codec ID : S_TEXT/UTF8
  88. Codec ID/Info : UTF-8 Plain Text
  89. Duration : 1 h 37 min
  90. Bit rate : 18 b/s
  91. Count of elements : 433
  92. Stream size : 13.0 KiB (0%)
  93. Language : Spanish
  94. Default : No
  95. Forced : No

  96. Text #5
  97. ID : 7
  98. Format : UTF-8
  99. Codec ID : S_TEXT/UTF8
  100. Codec ID/Info : UTF-8 Plain Text
  101. Duration : 1 h 37 min
  102. Bit rate : 17 b/s
  103. Count of elements : 449
  104. Stream size : 12.6 KiB (0%)
  105. Language : Spanish
  106. Default : No
  107. Forced : No

  108. Text #6
  109. ID : 8
  110. Format : UTF-8
  111. Codec ID : S_TEXT/UTF8
  112. Codec ID/Info : UTF-8 Plain Text
  113. Duration : 1 h 37 min
  114. Bit rate : 17 b/s
  115. Count of elements : 382
  116. Stream size : 12.7 KiB (0%)
  117. Language : Finnish
  118. Default : No
  119. Forced : No

  120. Text #7
  121. ID : 9
  122. Format : UTF-8
  123. Codec ID : S_TEXT/UTF8
  124. Codec ID/Info : UTF-8 Plain Text
  125. Duration : 1 h 37 min
  126. Bit rate : 17 b/s
  127. Count of elements : 435
  128. Stream size : 12.3 KiB (0%)
  129. Language : French
  130. Default : No
  131. Forced : No

  132. Text #8
  133. ID : 10
  134. Format : UTF-8
  135. Codec ID : S_TEXT/UTF8
  136. Codec ID/Info : UTF-8 Plain Text
  137. Duration : 1 h 37 min
  138. Bit rate : 15 b/s
  139. Count of elements : 430
  140. Stream size : 11.2 KiB (0%)
  141. Language : Croatian
  142. Default : No
  143. Forced : No
复制代码

爱莉安娜·格兰德:嗨,我爱你4k Ariana.Grande.Excuse.Me.I.Love.You.2020.2160p.WEBRip.x265电影下载

爱莉安娜·格兰德:嗨,我爱你4k Ariana Grande: Excuse Me, I Love You【11.09GB】
[Hao4k]爱莉安娜·格兰德:嗨,我爱你4k Ariana.Grande.Excuse.Me.I.Love.You.2020.21.torrent (56.18 KB, 售价: 2 K币)
分享到:  QQ好友和群QQ好友和群

全部回复18

沙发
mmmmike 发表于 3 天前

mmmmike 沙发

3 天前

爱莉安娜·格兰德:嗨,我爱你4k
板凳
burningbla 发表于 3 天前

burningbla 板凳

3 天前(qian)

A妹美翻了,嗓子也超棒,然而好听的歌却不太多。
地板
s000 发表于 3 天前

s000 地板

3 天前

据说前面一般,后面比较燃
5#
re_yu 发表于 3 天(tian)前

re_yu 5#

3 天(tian)前(qian)

A妹美翻了,嗓子也超棒
6#
cardinlai 发表于 前天 10:15

cardinlai 6#

前天 10:15

感谢分享!
7#
gmlucio 发表于 前天 19:19

gmlucio 7#

前天 19:19

爱莉安娜·格兰德:嗨,我爱你4k
8#
hp1228 发表于 前(qian)天 20:27 Hao4K手机版

hp1228 8#

前天 20:27

感谢分享,a妹还不错
9#
世爵39 发表于 昨天 08:01

世爵39 9#

昨天(tian) 08:01

这是真的记录片吗???
10#
世爵39 发表于 昨天(tian) 08:10

世爵39 10#

昨天 08:10

如果是真正的记录片就最好
11#
世爵39 发表于 昨天(tian) 09:21

世爵39 11#

昨天 09:21

图片封面不错.下来看看
12#
月光麦田 发表于 昨天 10:28

月光麦田 12#

昨(zuo)天 10:28

谢谢分享
13#
alex1122 发表于 昨(zuo)天 13:09

alex1122 13#

昨天 13:09

感谢楼主分享
14#
heyiweizhan998 发表于 昨天(tian) 13:20

heyiweizhan998 14#

昨天 13:20

谢谢楼主分享
15#
andywjhh 发表于 昨天 14:23

andywjhh 15#

昨天 14:23

好资源很给力
16#
like117 发表于 昨天 14:36

like117 16#

昨天(tian) 14:36

谢谢楼主分享
17#
a125104829 发表于 昨(zuo)天 18:56

a125104829 17#

昨天(tian) 18:56

来看A妹来看A妹来看A妹来看A妹来看A妹
18#
josephlok 发表于 昨天 19:10

josephlok 18#

昨(zuo)天 19:10


爱莉安娜·格兰德:嗨,我爱你

   发表回复

您需要登录后才可以回帖 登录 | 立即注册

返回列表 本版积分规则

  • 返回顶部(bu)