sdy体育平台

微信

Hao4K影音

电影频道
电影封面:
片  名: Kygo: Live at the Hollywood Bowl 4K
电影分类: 纪录片 
国  家: 美国 
年  代: 2017年
分 辨 率: 4K(3840x2160)
电影格式: MKV|REMUX 
画质标准: 其他 
音质编码: Dolby Digital Audio 
电影声道: 其他 
帧数/FPS: 23.67 帧
电影语言: 英文原版 
资源大小: 5.38 GB
导  演: Devin Chanda
豆瓣评分: 6.6 分
中文字幕: -
剧情简介:  Kygo has done it all and in seemingly no time. Hailing from Norway, he not only became the first artist to a billion streams, but he created a new genre altogether, one that is now a staple sound on the radio: tropical house. It wasn\'t as easy as it sounds. Beginning as a finance major, Kygo, real name Kyrre Gørvell-Dahll, played around with music as a hobby. It wasn\'t until he dropped out to pursue music that his life began to change. A few years later and now he\'s come to the legendary Hollywood Bowl for a sold out performance filled with guests and lasers and lights and more visual surprises than one can count. He\'s always associated this venue with Jimi Hendrix. So how did he get here? In his words, "That\'s a good question, actually." Exploring his journey from bedroom musician to international sensation, Kygo: Live at the Hollywood Bowl follows Kygo as he prepares for the big show, from arrival to rehearsal, from the green room to the stage. He\'s joined along the way by a wide array of special guests, including Seal, G-Eazy, Parson James, and Conrad Sewell. Featuring hits like Firestone, Stole the Show, and Sexual Healing, Kygo: Live at the Hollywood Bowl brings Kygo\'s astounding live show directly to his fans.
Kygo.Live.at.the.Hollywood.Bowl.2017.2160p.WEBRip.x265电影信息
  1. Video
  2. ID : 1
  3. Format : HEVC
  4. Format/Info : High Efficiency Video Coding
  5. Format profile : Main@L5.1@High
  6. Codec ID : V_MPEGH/ISO/HEVC
  7. Duration : 52 min 4 s
  8. Bit rate : 14.4 Mb/s
  9. Width : 3 840 pixels
  10. Height : 2 160 pixels
  11. Display aspect ratio : 16:9
  12. Frame rate mode : Constant
  13. Frame rate : 23.976 (24000/1001) FPS
  14. Color space : YUV
  15. Chroma subsampling : 4:2:0
  16. Bit depth : 8 bits
  17. Bits/(Pixel*Frame) : 0.072
  18. Stream size : 5.24 GiB (97%)
  19. Writing library : x265 3.5+9-bf91444e0:[Windows][MSVC 1900][64 bit] 8bit
  20. Encoding settings : cpuid=1111039 / frame-threads=4 / numa-pools=16 / wpp / no-pmode / no-pme / no-psnr / no-ssim / log-level=2 / input-csp=1 / input-res=3840x2160 / interlace=0 / total-frames=93654 / level-idc=51 / high-tier=1 / uhd-bd=0 / ref=4 / no-allow-non-conformance / repeat-headers / annexb / aud / no-eob / no-eos / hrd / info / hash=0 / no-temporal-layers / no-open-gop / min-keyint=23 / keyint=250 / gop-lookahead=0 / bframes=4 / b-adapt=2 / b-pyramid / bframe-bias=0 / rc-lookahead=25 / lookahead-slices=4 / scenecut=40 / hist-scenecut=0 / radl=0 / no-splice / no-intra-refresh / ctu=64 / min-cu-size=8 / rect / no-amp / max-tu-size=32 / tu-inter-depth=1 / tu-intra-depth=1 / limit-tu=0 / rdoq-level=2 / dynamic-rd=0.00 / no-ssim-rd / signhide / no-tskip / nr-intra=0 / nr-inter=0 / no-constrained-intra / no-strong-intra-smoothing / max-merge=3 / limit-refs=3 / limit-modes / me=3 / subme=3 / merange=57 / temporal-mvp / no-frame-dup / no-hme / weightp / no-weightb / no-analyze-src-pics / deblock=-3:-3 / no-sao / no-sao-non-deblock / rd=4 / selective-sao=0 / no-early-skip / rskip / no-fast-intra / no-tskip-fast / no-cu-lossless / no-b-intra / no-splitrd-skip / rdpenalty=0 / psy-rd=2.00 / psy-rdoq=1.00 / no-rd-refine / no-lossless / cbqpoffs=0 / crqpoffs=0 / rc=crf / crf=19.0 / qcomp=0.60 / qpstep=4 / stats-write=0 / stats-read=0 / vbv-maxrate=160000 / vbv-bufsize=160000 / vbv-init=0.9 / min-vbv-fullness=50.0 / max-vbv-fullness=80.0 / crf-max=0.0 / crf-min=0.0 / ipratio=1.40 / pbratio=1.30 / aq-mode=2 / aq-strength=1.00 / cutree / zone-count=0 / no-strict-cbr / qg-size=32 / no-rc-grain / qpmax=69 / qpmin=0 / no-const-vbv / sar=1 / overscan=0 / videoformat=5 / range=0 / colorprim=1 / transfer=1 / colormatrix=1 / chromaloc=0 / display-window=0 / cll=0,0 / min-luma=0 / max-luma=255 / log2-max-poc-lsb=8 / vui-timing-info / vui-hrd-info / slices=1 / no-opt-qp-pps / no-opt-ref-list-length-pps / no-multi-pass-opt-rps / scenecut-bias=0.05 / hist-threshold=0.03 / no-opt-cu-delta-qp / no-aq-motion / no-hdr10 / no-hdr10-opt / no-dhdr10-opt / no-idr-recovery-sei / analysis-reuse-level=0 / analysis-save-reuse-level=0 / analysis-load-reuse-level=0 / scale-factor=0 / refine-intra=0 / refine-inter=0 / refine-mv=1 / refine-ctu-distortion=0 / no-limit-sao / ctu-info=0 / no-lowpass-dct / refine-analysis-type=0 / copy-pic=1 / max-ausize-factor=1.0 / no-dynamic-refine / no-single-sei / no-hevc-aq / no-svt / no-field / qp-adaptation-range=1.00 / scenecut-aware-qp=0conformance-window-offsets / right=0 / bottom=0 / decoder-max-rate=0 / no-vbv-live-multi-pass
  21. Default : Yes
  22. Forced : No
  23. Color range : Limited
  24. Color primaries : BT.709
  25. Transfer characteristics : BT.709
  26. Matrix coefficients : BT.709

  27. Audio
  28. ID : 2
  29. Format : AC-3
  30. Format/Info : Audio Coding 3
  31. Commercial name : Dolby Digital
  32. Codec ID : A_AC3
  33. Duration : 52 min 5 s
  34. Bit rate mode : Constant
  35. Bit rate : 384 kb/s
  36. Channel(s) : 6 channels
  37. Channel layout : L R C LFE Ls Rs
  38. Sampling rate : 48.0 kHz
  39. Frame rate : 31.250 FPS (1536 SPF)
  40. Compression mode : Lossy
  41. Delay relative to video : 27 ms
  42. Stream size : 143 MiB (3%)
  43. Language : English
  44. Service kind : Complete Main
  45. Default : Yes
  46. Forced : No

  47. Text #1
  48. ID : 3
  49. Format : UTF-8
  50. Codec ID : S_TEXT/UTF8
  51. Codec ID/Info : UTF-8 Plain Text
  52. Duration : 51 min 51 s
  53. Bit rate : 56 b/s
  54. Count of elements : 664
  55. Stream size : 21.3 KiB (0%)
  56. Language : English
  57. Default : No
  58. Forced : No

  59. Text #2
  60. ID : 4
  61. Format : UTF-8
  62. Codec ID : S_TEXT/UTF8
  63. Codec ID/Info : UTF-8 Plain Text
  64. Duration : 38 min 59 s
  65. Bit rate : 1 b/s
  66. Count of elements : 15
  67. Stream size : 467 Bytes (0%)
  68. Language : English
  69. Default : No
  70. Forced : No

  71. Text #3
  72. ID : 5
  73. Format : UTF-8
  74. Codec ID : S_TEXT/UTF8
  75. Codec ID/Info : UTF-8 Plain Text
  76. Duration : 51 min 46 s
  77. Bit rate : 41 b/s
  78. Count of elements : 597
  79. Stream size : 15.9 KiB (0%)
  80. Language : Chinese
  81. Default : No
  82. Forced : No

  83. Text #4
  84. ID : 6
  85. Format : UTF-8
  86. Codec ID : S_TEXT/UTF8
  87. Codec ID/Info : UTF-8 Plain Text
  88. Duration : 51 min 46 s
  89. Bit rate : 43 b/s
  90. Count of elements : 558
  91. Stream size : 16.4 KiB (0%)
  92. Language : Dutch
  93. Default : No
  94. Forced : No

  95. Text #5
  96. ID : 7
  97. Format : UTF-8
  98. Codec ID : S_TEXT/UTF8
  99. Codec ID/Info : UTF-8 Plain Text
  100. Duration : 51 min 45 s
  101. Bit rate : 47 b/s
  102. Count of elements : 600
  103. Stream size : 18.0 KiB (0%)
  104. Language : French
  105. Default : No
  106. Forced : No

  107. Text #6
  108. ID : 8
  109. Format : UTF-8
  110. Codec ID : S_TEXT/UTF8
  111. Codec ID/Info : UTF-8 Plain Text
  112. Duration : 51 min 46 s
  113. Bit rate : 49 b/s
  114. Count of elements : 607
  115. Stream size : 18.7 KiB (0%)
  116. Language : German
  117. Default : No
  118. Forced : No

  119. Text #7
  120. ID : 9
  121. Format : UTF-8
  122. Codec ID : S_TEXT/UTF8
  123. Codec ID/Info : UTF-8 Plain Text
  124. Duration : 51 min 46 s
  125. Bit rate : 46 b/s
  126. Count of elements : 591
  127. Stream size : 17.5 KiB (0%)
  128. Language : Italian
  129. Default : No
  130. Forced : No
复制代码

Kygo.Live.at.the.Hollywood.Bowl.2017.2160p.WEBRip.x265电影下载
Kygo.Live.at.the.Hollywood.Bowl.2017.2160p.WEBRip.x265【4K 5.38 GB】
Kygo.Live.at.the.Hollywood.Bowl.2017.2160p.WEBRip.x265-LiQWEB.torrent (27.57 KB)
分享到:  QQ好友和群QQ好友和群

全部回复14

沙发
dk30129 发表于 3 天(tian)前(qian)

dk30129 沙发

3 天前(qian)

谢谢分享!顶你!!!
板凳
yangly 发表于 3 天前 Hao4K手机版

yangly 板凳

3 天前

谢谢分享
地板
mccliqiang 发表于 3 天前

mccliqiang 地板

3 天前

看不懂介绍内容,谢谢最好能看懂的
5#
kltan9988 发表于 前天 00:01

kltan9988 5#

前(qian)天 00:01

謝謝好片分享。
6#
rookingbo 发表于 前天 09:09

rookingbo 6#

前天(tian) 09:09


謝謝好片分享。
7#
da7ge 发表于 前天 09:24

da7ge 7#

前天 09:24

謝謝好片分享。
8#
xxw8888 发表于 前天(tian) 13:10

xxw8888 8#

前天 13:10

謝謝好片分享
9#
xb1104762576 发表于 前天 19:03

xb1104762576 9#

前天(tian) 19:03

谢谢分享大佬
10#
slashes 发表于 昨天(tian) 10:32

slashes 10#

昨天 10:32

很喜欢Kygo,谢谢
11#
heyiweizhan998 发表于 昨天 13:19

heyiweizhan998 11#

昨(zuo)天(tian) 13:19

谢谢楼主分享
12#
andywjhh 发表于 昨天 14:34

andywjhh 12#

昨天 14:34

好资源很给力
13#
PUPU 发表于 昨天 16:58

PUPU 13#

昨天 16:58

好资源,谢谢分享!
14#
liyun80000 发表于 昨(zuo)天 17:13

liyun80000 14#

昨天(tian) 17:13

谢谢楼主分享
15#
kltan9988 发表于 23 小时(shi)前

kltan9988 15#

23 小时前(qian)

謝謝好片分享。

   发表回复

您需要登录后才可以回帖 登录 | 立即注册

返回列表 本版积分规则

  • 返(fan)回顶部

  • x
    温馨提示

    投影新手学院正式上线!

    为(wei)投(tou)影(ying)玩家而生的投(tou)影(ying)学院,为(wei)您提供认识(shi)投(tou)影(ying)、购买投(tou)影(ying)、及使用投(tou)影(ying)的专业知识(shi)。

    立刻查看